#TITLE:DANCE DANCE;
#SUBTITLE:;
#ARTIST:Cool;
#TITLETRANSLIT:;
#SUBTITLETRANSLIT:;
#ARTISTTRANSLIT:;
#CREDIT:;
#BANNER:Dance Dance_logo.jpg;
#BACKGROUND:Dance Dance_bg.jpg;
#LYRICSPATH:;
#CDTITLE:Lan.png;
#MUSIC:DANCE DANCE.mp3;
#OFFSET:-0.020;
#SAMPLESTART:100.000;
#SAMPLELENGTH:12.000;
#SELECTABLE:YES;
#BPMS:0.000=140.000;
#STOPS:;
#BGCHANGES:;
// cache tags:
#FIRSTBEAT:21.000;
#LASTBEAT:291.500;
#SONGFILENAME:Songs/lan sky/DANCE DANCE/DANCE DANCE.sm;
#HASMUSIC:1;
#HASBANNER:1;
#MUSICLENGTH:128.302;
// end cache tags

//---------------dance-single - sky----------------
#NOTES:
     dance-single:
     sky:
     Hard:
     9:
     0.802,0.880,0.850,0.062,0.487,603.000,109.000,8.000,0.000,28.000:

0000
0000
0000
0000
,
0000
0000
0000
0000
,
0000
0000
0000
0000
,
0000
0000
0000
0000
,
0000
0000
0000
0000
,
0000
1100
0000
0011
,
0000
0000
0000
0000
1010
0000
0000
0000
0011
0000
0000
0110
0000
0000
1100
0000
,
1001
0110
0000
1010
,
0000
0000
1001
0000
1001
0000
0000
1000
0001
0000
0100
0010
0100
0001
0010
0100
,
1001
0000
0100
0000
0010
0000
0001
0000
1000
0100
1000
0000
0001
0010
0001
0000
,
0100
0000
0010
0000
1000
0000
0001
0000
0100
1000
0010
0000
0001
0100
0010
0000
,
1000
0100
0010
0001
0010
0100
1000
0001
,
1000
0000
0010
0000
1000
0000
0001
0000
1000
0100
0010
0000
0001
0010
0100
0000
,
1000
0001
0010
0100
1000
0100
0010
0100
,
1000
0000
0001
0000
0010
0000
0100
0000
1000
0100
0001
0000
0001
0010
1000
0000
,
1000
0100
0010
0000
0100
0010
0001
0000
0001
0010
0100
0000
0010
0100
1000
0000
,
0001
0010
0001
0000
1000
0100
1000
0000
0010
0100
0010
0000
0001
1000
0001
0000
,
1000
0100
0010
0100
1000
0100
0010
1000
,
0001
1000
0100
0010
0001
1000
0000
1001
,
1100
0000
1010
0100
0010
0100
1000
0001
,
1000
0001
0010
0100
1000
0001
1000
0110
,
1010
0000
0011
0000
1100
0010
1100
0000
,
0011
0100
0011
0000
1010
0100
0010
0001
,
1000
0010
1000
0010
0100
0001
0100
0001
,
1000
0000
1000
0000
1001
0000
0010
0000
0001
1000
0010
0100
1000
0100
0010
0000
,
0001
0010
1001
0100
1000
0100
1010
0000
,
0010
0100
0010
0000
0010
0100
1000
0000
0100
0010
0001
0000
0001
1000
0001
0000
,
1001
1000
1100
0010
0100
1000
0110
0001
,
0010
0100
0011
1000
0101
0010
0100
1000
,
0101
0001
1001
0010
0100
0010
1001
0010
,
1000
0100
0010
0000
0001
0010
0100
0000
1000
0100
0010
0001
1001
0000
0110
0000
,
1001
0010
0110
1000
1010
0010
1100
0001
,
0101
0000
0010
0000
0100
0000
0010
1000
0001
0000
0100
0001
0010
0100
1000
0001
,
1000
0100
1000
0100
0001
0010
0100
1000
0010
0100
0001
1000
0010
0100
0001
1000
,
0010
0100
0010
0100
0010
0100
0001
0010
0100
1000
0001
1000
0001
0100
0010
0001
,
1100
0010
1010
0100
1000
0011
0100
1010
,
0011
0000
0001
0000
1001
0000
0010
0000
0101
0000
1000
0010
1000
0000
0100
0000
,
0010
0001
1010
0100
1001
1000
1010
0100
,
0010
0000
1000
0000
0110
0000
0001
0000
1100
0000
0001
0010
0100
1000
0001
0000
,
0100
0010
0100
0000
0010
1000
0001
0000
0010
0100
1000
0000
0100
0010
0001
0000
,
1000
0100
0010
0000
0001
0010
0100
0000
0001
0100
1000
0000
1000
0100
0001
0000
,
1002
0000
0000
0000
1100
0000
0000
0000
0110
0000
0000
0000
1010
0000
0000
0003
,
0120
0000
0000
0000
1001
0000
0000
0000
1100
0000
0000
0101
0000
0000
1001
0030
,
1002
0000
0000
0000
0110
0000
0000
0000
1100
0000
0000
0000
1010
0000
0000
0003
,
0210
0000
0000
0000
0011
0000
0000
0000
1010
0000
0000
0011
0000
0000
1001
0300
,
0021
0000
0000
0000
0101
0000
0000
0000
1100
0000
0000
0000
1001
0000
0000
0030
,
0201
0000
0000
0000
0011
0000
0000
0000
1010
0000
0000
1001
0000
0000
0011
0300
,
1020
0000
0000
0000
1100
0000
0000
0000
0101
0000
0000
0000
1001
0000
0000
0030
,
2100
0000
0000
0000
0011
0000
0000
0000
0110
0000
0000
0101
0000
0000
0011
3000
,
0001
0010
0100
1000
0100
0010
0100
0010
,
0001
0010
0001
0000
0010
0100
0010
0000
0100
0010
0100
0000
1000
0100
1000
0000
,
1000
0100
0010
0001
0100
0010
0100
0010
,
1000
0100
0010
0000
0100
0010
0001
0000
0001
0010
0100
0000
0010
0100
1000
0000
,
0010
0100
0001
1000
0001
1000
0100
0010
,
0001
0100
0010
0000
1000
0010
0100
0000
1000
0010
0001
0000
0001
0010
1000
0000
,
0100
0010
1000
0001
0100
0010
1000
0001
,
0010
0000
0100
0000
0010
0000
0001
0000
0100
0000
1000
0100
0010
0001
1000
0000
,
0010
0100
0010
0100
1000
0100
0010
0100
,
1000
0000
0100
0000
0010
0000
0001
0000
1100
0000
0000
0011
0000
0000
1100
0000
,
1001
0010
0100
0001
0100
0010
0001
1000
,
0100
0000
1000
0000
0010
0000
0100
0000
0001
0000
0000
0110
0000
0000
0011
0000
,
1010
0100
0010
0100
1000
0001
0010
0100
,
0010
0000
0001
0000
0100
0000
0010
0000
0100
0000
0000
0011
0000
0000
1100
0000
,
1001
0010
0001
0010
0001
0010
0001
0010
,
1000
0000
0100
0000
1000
0000
0100
0000
1000
0000
0010
0100
0010
0100
0010
0000
,
1000
0100
0010
0000
0100
0010
0001
0000
0001
0010
0100
0000
0010
0100
1000
0000
,
1000
0100
1000
0000
0001
0010
0001
0000
0100
0010
0010
0000
0010
0100
0100
0000
,
1000
0100
0010
0001
0001
0010
0100
1000
0010
1000
0001
0000
0100
0010
1000
0000
,
0100
0010
0001
0000
0010
0100
1000
0000
0100
0010
0001
0010
0100
1000
0100
1000
,
0001
0010
0100
0000
0010
0100
1000
0000
0010
0100
0001
1000
0001
1000
0100
0010
,
1001
0010
0100
0010
0100
0001
1000
0100
1000
0010
0001
0100
0010
0001
0010
0100
,
1010
0100
1000
0000
1100
0000
0000
0000
0011
0100
0010
0000
1001
0000
0000
0000
,
1100
0010
0001
0000
1001
0000
0000
0000
0110
0000
0010
0100
1000
0011
1100
0000
;
